<?xml version="1.0" standalone="no"?>
<!DOCTYPE svg PUBLIC "-//W3C//DTD SVG 1.1//EN" "http://www.w3.org/Graphics/SVG/1.1/DTD/svg11.dtd">
<svg xmlns="http://www.w3.org/2000/svg">
<defs >
<font id="Anton" horiz-adv-x="938" ><font-face
    font-family="Anton"
    units-per-em="2048"
    panose-1="0 0 0 0 0 0 0 0 0 0"
    ascent="2409"
    descent="-674"
    alphabetic="0" />
<glyph unicode=" " glyph-name="space" horiz-adv-x="480" />
<glyph unicode="!" glyph-name="exclam" horiz-adv-x="469" d="M125 479L55 1760H413L343 479H125ZM55 1V299H413V1H55Z" />
<glyph unicode="&quot;" glyph-name="quotedbl" horiz-adv-x="878" d="M141 1124L41 1760H393L317 1124H141ZM581 1124L481 1760H833L757 1124H581Z" />
<glyph unicode="#" glyph-name="numbersign" horiz-adv-x="1119" d="M38 0L137 509H42V741H182L210 886H100V1118H255L348 1593H632L539 1118H705L798 1593H1082L989 1118H1082V886H944L916 741H1024V509H870L771 0H488L587 509H420L321 0H38ZM466 741H632L660
886H494L466 741Z" />
<glyph unicode="$" glyph-name="dollar" horiz-adv-x="946" d="M384 -113V36Q196 58 115 168T34 488V543H382V501Q382 347 479 347Q521 347 540 373T560 434Q560 496 497 560L210 849Q52 1007 52 1192Q52 1292 97 1368T218 1493T384 1558V1679H557V1561Q728 1539
817 1420T906 1105H549V1170Q549 1213 526 1236T465 1259Q423 1259 402 1238T381 1182Q381 1132 480 1034L760 758Q822 697 866 610T911 413Q911 248 810 150T557 34V-113H384Z" />
<glyph unicode="%" glyph-name="percent" horiz-adv-x="2164" d="M660 0L1200 1767H1524L983 0H660ZM433 528Q247 528 145 642T42 948V1311Q42 1513 139 1621T433 1729Q630 1729 727 1621T825 1311V948Q825 757 723 643T433 528ZM433 790Q472 790 499 818T526
889V1375Q526 1434 509 1468T433 1502Q375 1502 358 1468T340 1375V889Q340 847 367 819T433 790ZM1730 -18Q1544 -18 1442 96T1339 402V765Q1339 967 1436 1075T1730 1183Q1927 1183 2024 1075T2122 765V402Q2122 211 2020 97T1730 -18ZM1730 244Q1769 244 1796
272T1823 343V829Q1823 888 1806 922T1730 956Q1672 956 1655 922T1637 829V343Q1637 301 1664 273T1730 244Z" />
<glyph unicode="&amp;" glyph-name="ampersand" horiz-adv-x="1065" d="M386 -21Q222 -21 129 106T35 456Q35 615 63 720T143 895T260 1017L252 1037Q210 1141 179 1235T147 1430Q147 1531 190 1609T309 1731T485 1776Q583 1776 663 1734T792 1606T840 1391Q840
1250 788 1155T630 972L726 730Q785 879 896 961L1035 744Q919 651 841 441L1017 0H677L638 95Q599 47 534 13T386 -21ZM461 1461Q461 1435 474 1385T535 1210Q554 1230 569 1273T584 1391Q584 1468 566 1499T517 1530Q488 1530 475 1509T461 1461ZM341 413Q341
235 442 235Q483 235 508 265T542 329L374 738Q341 668 341 493V413Z" />
<glyph unicode="&apos;" glyph-name="quotesingle" horiz-adv-x="438" d="M141 1124L41 1760H393L317 1124H141Z" />
<glyph unicode="(" glyph-name="parenleft" horiz-adv-x="596" d="M560 -188Q402 -181 288 -107T111 95T49 391V1245Q49 1517 175 1666T560 1823V1556Q484 1543 453 1496T421 1359V279Q421 204 461 159T560 97V-188Z" />
<glyph unicode=")" glyph-name="parenright" horiz-adv-x="596" d="M36 -188V97Q95 113 135 158T175 279V1359Q175 1448 144 1495T36 1556V1823Q295 1816 421 1667T547 1245V391Q547 223 485 92T309 -113T36 -188Z" />
<glyph unicode="*" glyph-name="asterisk" horiz-adv-x="926" d="M347 741L391 1043L152 854L36 1054L310 1171L36 1280L152 1480L390 1301L347 1593H579L544 1307L774 1480L890 1280L615 1171L890 1054L774 854L543 1036L579 741H347Z" />
<glyph unicode="+" glyph-name="plus" horiz-adv-x="728" d="M248 301V509H40V741H248V949H480V741H688V509H480V301H248Z" />
<glyph unicode="," glyph-name="comma" horiz-adv-x="484" d="M116 -235L182 1H55V299H429V10L327 -235H116Z" />
<glyph unicode="-" glyph-name="hyphen" horiz-adv-x="637" d="M60 509V741H576V509H60Z" />
<glyph unicode="." glyph-name="period" horiz-adv-x="468" d="M55 1V299H413V1H55Z" />
<glyph unicode="/" glyph-name="slash" horiz-adv-x="830" d="M29 0L439 1767H803L392 0H29Z" />
<glyph unicode="0" glyph-name="zero" horiz-adv-x="1012" d="M506 -16Q283 -16 162 109T40 469V1263Q40 1511 155 1643T506 1776Q742 1776 857 1644T972 1263V469Q972 234 851 109T506 -16ZM506 308Q547 308 570 345T593 428V1297Q593 1359 580 1405T506 1452Q446
1452 433 1406T419 1297V428Q419 382 442 345T506 308Z" />
<glyph unicode="1" glyph-name="one" horiz-adv-x="677" d="M243 0V1356Q207 1313 144 1287T25 1260V1541Q78 1549 139 1575T252 1648T333 1761H616V0H243Z" />
<glyph unicode="2" glyph-name="two" horiz-adv-x="1012" d="M62 0V84Q62 215 102 319T207 513T342 689Q411 773 473 861T575 1053T615 1286Q615 1348 597 1392T520 1437Q432 1437 432 1280V1065H62Q61 1088 60 1117T58 1173Q58 1363 98 1495T239 1697T525 1767Q744
1767 865 1644T987 1293Q987 1138 947 1022T841 810T696 619Q640 552 588 482T495 332H975V0H62Z" />
<glyph unicode="3" glyph-name="three" horiz-adv-x="1012" d="M484 -20Q251 -20 145 103T39 474V658H400V473Q400 403 417 355T496 306Q558 306 575 358T592 530V574Q592 665 562 733T442 801Q431 801 423 801T408 799V1115Q499 1115 547 1155T595 1291Q595 1440
509 1440Q453 1440 434 1397T414 1286V1233H50Q49 1245 49 1262T48 1295Q48 1537 161 1650T507 1763Q957 1763 957 1295Q957 1165 922 1081T792 962Q867 926 903 870T950 731T961 530Q961 266 851 123T484 -20Z" />
<glyph unicode="4" glyph-name="four" horiz-adv-x="1012" d="M540 -1V278H18V553L351 1761H899V572H993V278H899V-1H540ZM332 572H540V1459L332 572Z" />
<glyph unicode="5" glyph-name="five" horiz-adv-x="1012" d="M506 -25Q303 -25 175 75T46 384V646H412V495Q412 448 417 404T443 332T506 304Q563 304 581 342T599 441V787Q599 830 594 872T569 942T508 970Q408 970 408 825H85V1761H924V1431H419V1183Q445 1215
489 1239T594 1264Q714 1264 789 1218T905 1090T961 900T977 668Q977 509 961 382T896 163T754 24T506 -25Z" />
<glyph unicode="6" glyph-name="six" horiz-adv-x="1012" d="M529 -16Q346 -16 243 46T97 235T54 549V1025Q54 1208 69 1348T134 1583T280 1727T539 1776Q650 1776 746 1738T901 1623T960 1431V1241H621V1277Q621 1321 617 1365T594 1438T533 1467Q474 1467 451
1435T428 1341V988Q453 1035 503 1063T625 1092Q771 1092 849 1034T958 859T988 569Q988 393 945 262T802 57T529 -16ZM516 308Q578 308 590 360T602 495V637Q602 781 521 781Q428 781 428 656V438Q428 308 516 308Z" />
<glyph unicode="7" glyph-name="seven" horiz-adv-x="1012" d="M145 1Q161 247 214 461T336 859T469 1198L567 1435H70V1761H958V1569Q958 1463 923 1355T831 1117Q707 835 634 556T543 1H145Z" />
<glyph unicode="8" glyph-name="eight" horiz-adv-x="1012" d="M506 -19Q258 -19 152 123T46 525V642Q46 776 78 859T196 986Q115 1019 81 1096T47 1289V1335Q47 1569 164 1675T506 1782Q736 1782 850 1673T964 1321Q964 1194 934 1108T815 984Q910 935 938 856T966
642V525Q966 265 860 123T506 -19ZM506 1134Q599 1134 599 1302Q599 1358 580 1408T506 1458Q452 1458 433 1408T413 1302Q413 1134 506 1134ZM506 329Q602 329 602 484V645Q602 725 581 770T506 815Q451 815 431 770T411 645V484Q411 329 506 329Z" />
<glyph unicode="9" glyph-name="nine" horiz-adv-x="1012" d="M503 -16Q392 -16 296 22T141 138T82 329V519H421V483Q421 439 425 395T448 322T509 293Q568 293 591 325T614 419V772Q589 726 539 697T417 668Q272 668 193 726T84 901T54 1191Q54 1367 97 1498T240
1703T513 1776Q697 1776 800 1714T945 1526T988 1211V735Q988 552 973 412T908 177T762 33T503 -16ZM521 979Q614 979 614 1104V1322Q614 1452 526 1452Q464 1452 452 1400T440 1265V1123Q440 979 521 979Z" />
<glyph unicode=":" glyph-name="colon" horiz-adv-x="495" d="M68 976V1274H426V976H68ZM68 237V535H426V237H68Z" />
<glyph unicode=";" glyph-name="semicolon" horiz-adv-x="502" d="M66 976V1274H424V976H66ZM127 0L193 236H66V534H440V245L338 0H127Z" />
<glyph unicode="&lt;" glyph-name="less" horiz-adv-x="658" d="M605 200L35 545V959L605 1300V941L263 749L605 558V200Z" />
<glyph unicode="=" glyph-name="equal" horiz-adv-x="637" d="M61 892V1116H575V892H61ZM61 509V741H575V509H61Z" />
<glyph unicode="&gt;" glyph-name="greater" horiz-adv-x="658" d="M53 200V558L395 749L53 941V1300L623 959V545L53 200Z" />
<glyph unicode="?" glyph-name="question" horiz-adv-x="1008" d="M127 455V871Q252 871 341 884T488 939T573 1066T601 1294Q601 1359 585 1408T508 1457Q465 1457 445 1430T420 1360T414 1271V1125H48V1379Q48 1581 176 1678T508 1776Q686 1776 788 1712T934
1526T978 1226Q978 1053 922 917T750 703T460 625V455H127ZM116 1V299H474V1H116Z" />
<glyph unicode="@" glyph-name="at" horiz-adv-x="1770" d="M919 -158Q742 -158 588 -107T315 56T131 346T64 777Q64 1091 167 1314T463 1657T928 1776Q1186 1776 1360 1669T1623 1362T1712 882Q1712 590 1623 434T1329 277Q1182 277 1112 337T1007 491Q989 400
941 343T810 285Q711 285 644 353T544 533T510 774Q510 918 536 1037T626 1228T798 1299Q870 1299 917 1261T1002 1159L1041 1290H1267V650Q1267 572 1291 539T1356 505Q1422 505 1444 600T1466 877Q1466 1082 1417 1229T1256 1456T950 1536Q655 1536 503 1339T350
774Q350 427 509 253T934 78Q1041 78 1200 99L1231 -127Q1054 -158 919 -158ZM903 532Q949 532 965 579T982 682V1074Q920 1074 885 1049T835 961T820 783Q820 724 827 666T852 570T903 532Z" />
<glyph unicode="A" glyph-name="A" horiz-adv-x="994" d="M30 0L200 1760H797L964 0H631L606 284H394L372 0H30ZM419 565H579L502 1460H486L419 565Z" />
<glyph unicode="B" glyph-name="B" horiz-adv-x="980" d="M78 0V1760H555Q747 1760 834 1667T922 1358V1281Q922 1157 878 1080T742 979Q861 949 901 839T942 569Q942 398 910 270T794 71T555 0H78ZM422 1097H494Q543 1097 557 1135T571 1226V1403Q571 1488 496
1488H422V1097ZM457 310Q594 310 594 440V660Q594 735 572 778T487 822H422V312Q444 310 457 310Z" />
<glyph unicode="C" glyph-name="C" horiz-adv-x="971" d="M488 -16Q297 -16 181 103T64 436V1248Q64 1504 165 1640T496 1776Q621 1776 718 1730T872 1593T928 1362V1058H578V1318Q578 1397 558 1424T496 1452Q447 1452 430 1417T413 1322V441Q413 368 434 338T496
308Q541 308 559 345T578 441V758H932V425Q932 193 815 89T488 -16Z" />
<glyph unicode="D" glyph-name="D" horiz-adv-x="1010" d="M78 0V1760H562Q752 1760 848 1655T944 1346V522Q944 272 857 136T550 0H78ZM432 311H493Q590 311 590 405V1313Q590 1401 567 1426T471 1452H432V311Z" />
<glyph unicode="E" glyph-name="E" horiz-adv-x="843" d="M78 0V1760H782V1420H436V1077H768V746H436V343H805V0H78Z" />
<glyph unicode="F" glyph-name="F" horiz-adv-x="817" d="M78 0V1760H782V1417H432V1137H764V798H432V0H78Z" />
<glyph unicode="G" glyph-name="G" horiz-adv-x="993" d="M441 -16Q64 -16 64 524V1283Q64 1776 496 1776Q674 1776 769 1705T900 1496T936 1162H592V1318Q592 1375 577 1413T512 1452Q451 1452 432 1411T412 1321V468Q412 397 430 353T503 308Q559 308 577 352T596
470V721H502V1025H932V0H791L731 148Q639 -16 441 -16Z" />
<glyph unicode="H" glyph-name="H" horiz-adv-x="1022" d="M78 0V1760H428V1131H594V1760H944V0H594V798H428V0H78Z" />
<glyph unicode="I" glyph-name="I" horiz-adv-x="464" d="M62 0V1760H402V0H62Z" />
<glyph unicode="J" glyph-name="J" horiz-adv-x="955" d="M468 -16Q349 -16 251 30T96 166T38 389V830H386V410Q386 364 404 336T464 308Q543 308 543 405V1760H898V440Q898 300 843 198T691 40T468 -16Z" />
<glyph unicode="K" glyph-name="K" horiz-adv-x="967" d="M78 0V1760H426V1055L590 1760H944L747 954L985 0H620L428 852V0H78Z" />
<glyph unicode="L" glyph-name="L" horiz-adv-x="814" d="M78 0V1760H430V300H792V0H78Z" />
<glyph unicode="M" glyph-name="M" horiz-adv-x="1528" d="M78 0V1760H614L762 687L909 1760H1450V0H1128V1268L926 0H610L396 1268V0H78Z" />
<glyph unicode="N" glyph-name="N" horiz-adv-x="1020" d="M78 0V1760H440L602 917V1760H942V0H598L422 880V0H78Z" />
<glyph unicode="O" glyph-name="O" horiz-adv-x="996" d="M498 -16Q287 -16 176 111T64 480V1316Q64 1542 174 1659T498 1776Q711 1776 821 1659T932 1316V480Q932 239 821 112T498 -16ZM501 308Q581 308 581 463V1322Q581 1452 503 1452Q415 1452 415 1319V461Q415
379 435 344T501 308Z" />
<glyph unicode="P" glyph-name="P" horiz-adv-x="967" d="M78 0V1760H543Q689 1760 774 1695T897 1510T934 1224Q934 1064 903 946T793 762T567 697H424V0H78ZM424 1013H444Q542 1013 564 1068T586 1230Q586 1330 565 1384T463 1439H424V1013Z" />
<glyph unicode="Q" glyph-name="Q" horiz-adv-x="1011" d="M856 -187L576 -3Q528 -16 477 -16Q271 -16 163 106T54 462V1313Q54 1540 165 1658T488 1776Q699 1776 810 1658T922 1313V462Q922 244 824 119L975 23L856 -187ZM488 308Q526 308 542 336T563 405T568
484V1307Q568 1363 553 1407T486 1452Q434 1452 418 1409T402 1308V477Q402 442 406 403T429 336T488 308Z" />
<glyph unicode="R" glyph-name="R" horiz-adv-x="976" d="M78 0V1760H618Q753 1760 822 1699T914 1527T938 1267Q938 1123 902 1037T764 918Q847 901 880 836T914 666V0H567V689Q567 766 536 784T434 803V0H78ZM436 1108H521Q594 1108 594 1267Q594 1370 578 1402T518
1434H436V1108Z" />
<glyph unicode="S" glyph-name="S" horiz-adv-x="945" d="M496 -16Q255 -16 149 104T42 486V658H390V438Q390 377 408 343T473 308Q521 308 539 336T558 428Q558 509 542 563T487 667T377 783L219 933Q42 1100 42 1315Q42 1540 146 1658T449 1776Q691 1776 792
1647T894 1255H536V1376Q536 1412 516 1432T460 1452Q418 1452 399 1429T379 1368Q379 1331 399 1288T478 1189L681 994Q742 936 793 872T875 722T906 513Q906 265 815 125T496 -16Z" />
<glyph unicode="T" glyph-name="T" horiz-adv-x="810" d="M229 0V1422H20V1760H790V1422H581V0H229Z" />
<glyph unicode="U" glyph-name="U" horiz-adv-x="970" d="M485 -16Q265 -16 161 107T57 471V1760H399V485Q399 441 404 401T427 334T485 308Q526 308 544 333T566 400T571 485V1760H913V471Q913 231 809 108T485 -16Z" />
<glyph unicode="V" glyph-name="V" horiz-adv-x="961" d="M240 0L23 1761H358L487 563L602 1761H937L720 0H240Z" />
<glyph unicode="W" glyph-name="W" horiz-adv-x="1458" d="M216 0L27 1760H371L468 649L567 1760H895L989 649L1083 1760H1431L1239 0H817L729 847L645 0H216Z" />
<glyph unicode="X" glyph-name="X" horiz-adv-x="991" d="M27 0L216 933L66 1761H410L501 1156L582 1761H927L777 933L965 0H609L498 688L384 0H27Z" />
<glyph unicode="Y" glyph-name="Y" horiz-adv-x="914" d="M291 0V579L10 1760H359L457 1164L555 1760H903L623 579V0H291Z" />
<glyph unicode="Z" glyph-name="Z" horiz-adv-x="840" d="M32 0V320L435 1436H71V1760H806V1452L396 324H789V0H32Z" />
<glyph unicode="[" glyph-name="bracketleft" horiz-adv-x="651" d="M62 -188V1823H616V1542H414V93H616V-188H62Z" />
<glyph unicode="\" glyph-name="backslash" horiz-adv-x="830" d="M438 0L27 1767H391L801 0H438Z" />
<glyph unicode="]" glyph-name="bracketright" horiz-adv-x="651" d="M35 -188V93H237V1542H35V1823H589V-188H35Z" />
<glyph unicode="^" glyph-name="asciicircum" horiz-adv-x="970" d="M40 432L281 1355H689L930 432H571L485 1027L399 432H40Z" />
<glyph unicode="_" glyph-name="underscore" horiz-adv-x="748" d="M48 -362V-130H700V-362H48Z" />
<glyph unicode="`" glyph-name="grave" horiz-adv-x="650" d="M536 1553L61 1647V1994L536 1776V1553Z" />
<glyph unicode="a" glyph-name="a" horiz-adv-x="990" d="M345 -16Q220 -16 155 42T65 201T41 430Q41 567 68 654T160 798T341 893L563 969V1123Q563 1244 484 1244Q412 1244 412 1146V1056H64Q63 1064 63 1076T63 1105Q63 1329 168 1422T503 1516Q623 1516 718
1474T868 1348T924 1143V0H568V178Q542 84 482 34T345 -16ZM486 262Q530 262 546 299T562 379V797Q488 767 447 722T406 588V395Q406 262 486 262Z" />
<glyph unicode="b" glyph-name="b" horiz-adv-x="1027" d="M671 -16Q583 -16 528 27T440 160V0H76V1760H440V1340Q473 1423 531 1469T699 1516Q846 1516 906 1409T967 1129V391Q967 276 936 184T839 38T671 -16ZM523 263Q580 263 592 319T604 457V1043Q604 1126
592 1181T524 1237Q466 1237 453 1181T440 1043V457Q440 376 453 320T523 263Z" />
<glyph unicode="c" glyph-name="c" horiz-adv-x="1006" d="M523 -16Q271 -16 166 113T60 492V954Q60 1142 100 1267T240 1454T518 1516Q642 1516 740 1472T896 1343T953 1135V906H588V1116Q588 1168 573 1203T508 1239Q420 1239 420 1114V387Q420 341 440 303T506
264Q553 264 571 301T590 389V641H953V379Q953 255 898 167T745 31T523 -16Z" />
<glyph unicode="d" glyph-name="d" horiz-adv-x="1020" d="M367 -16Q263 -16 202 22T111 127T72 284T62 477V1129Q62 1302 123 1409T332 1516Q441 1516 499 1470T590 1340V1760H954V0H590V159Q560 78 511 31T367 -16ZM504 264Q555 264 572 305T590 452V1083Q590
1136 575 1187T506 1239Q448 1239 433 1190T418 1083V452Q418 264 504 264Z" />
<glyph unicode="e" glyph-name="e" horiz-adv-x="1000" d="M492 -16Q332 -16 237 44T101 217T60 489V1092Q60 1301 180 1408T510 1516Q942 1516 942 1092V983Q942 785 938 717H418V427Q418 387 423 349T445 285T502 260Q558 260 572 308T586 435V579H942V494Q942
326 901 213T761 42T492 -16ZM416 895H586V1097Q586 1178 566 1213T506 1249Q463 1249 440 1215T416 1097V895Z" />
<glyph unicode="f" glyph-name="f" horiz-adv-x="574" d="M105 0V1161H40V1434H105V1536Q105 1778 347 1778Q461 1778 531 1749V1528Q506 1533 498 1533Q467 1533 460 1511T453 1453V1434H531V1157H460V0H105Z" />
<glyph unicode="g" glyph-name="g" horiz-adv-x="1032" d="M476 -260Q372 -260 298 -250T164 -212T46 -136L167 71Q298 -7 429 -7Q515 -7 557 48T599 191V338Q556 184 370 184Q263 184 197 235T101 373T71 567V1106Q71 1227 97 1319T188 1464T370 1516Q469 1516
524 1466T599 1331V1500H964V214Q964 -41 847 -150T476 -260ZM515 454Q599 454 599 606V1116Q599 1157 576 1200T511 1243Q459 1243 446 1205T433 1116V606Q433 552 446 503T515 454Z" />
<glyph unicode="h" glyph-name="h" horiz-adv-x="1035" d="M72 0V1760H440V1351Q469 1435 529 1475T669 1516Q825 1516 896 1418T967 1155V0H605V1132Q605 1181 585 1212T520 1243Q483 1243 462 1211T440 1135V0H72Z" />
<glyph unicode="i" glyph-name="i" horiz-adv-x="498" d="M70 1592V1890H428V1592H70ZM70 0V1500H428V0H70Z" />
<glyph unicode="j" glyph-name="j" horiz-adv-x="538" d="M110 1592V1890H468V1592H110ZM186 -260Q72 -260 34 -234V6Q52 1 67 1Q96 1 103 21T110 72V1500H468V82Q468 -78 405 -169T186 -260Z" />
<glyph unicode="k" glyph-name="k" horiz-adv-x="1005" d="M72 0V1760H426V983L598 1500H969L744 848L1030 0H649L426 707V0H72Z" />
<glyph unicode="l" glyph-name="l" horiz-adv-x="508" d="M72 0V1760H436V0H72Z" />
<glyph unicode="m" glyph-name="m" horiz-adv-x="1553" d="M72 0V1500H422V1326Q446 1418 504 1467T674 1516Q764 1516 827 1475T917 1365Q958 1439 1013 1477T1172 1516Q1297 1516 1364 1463T1458 1315T1485 1096V0H1128V1102Q1128 1247 1054 1247Q1015 1247
994 1221T965 1155T957 1077V0H600V1102Q600 1149 589 1196T530 1243Q490 1243 468 1214T438 1143T430 1059V0H72Z" />
<glyph unicode="n" glyph-name="n" horiz-adv-x="1021" d="M72 0V1500H430V1309Q450 1395 504 1455T656 1516Q812 1516 882 1420T953 1157V0H600V1120Q600 1164 582 1201T520 1239Q479 1239 460 1211T435 1140T430 1055V0H72Z" />
<glyph unicode="o" glyph-name="o" horiz-adv-x="1017" d="M508 -16Q60 -16 60 449V1051Q60 1263 179 1389T508 1516Q719 1516 838 1390T957 1051V449Q957 -16 508 -16ZM508 260Q553 260 572 292T592 375V1108Q592 1239 508 1239Q424 1239 424 1108V375Q424 325
443 293T508 260Z" />
<glyph unicode="p" glyph-name="p" horiz-adv-x="1027" d="M72 -250V1500H436V1340Q469 1423 527 1469T695 1516Q842 1516 902 1409T963 1129V391Q963 276 931 184T829 38T647 -16Q501 -16 436 160V-250H72ZM521 263Q577 263 588 319T600 457V1043Q600 1126 589
1181T521 1237Q463 1237 450 1181T436 1043V457Q436 376 449 320T521 263Z" />
<glyph unicode="q" glyph-name="q" horiz-adv-x="1020" d="M590 -250V159Q560 78 511 31T367 -16Q263 -16 202 22T111 127T72 284T62 477V1129Q62 1302 123 1409T332 1516Q441 1516 499 1470T590 1340V1500H954V-250H590ZM504 264Q551 264 570 313T590 450V1083Q590
1136 575 1187T506 1239Q448 1239 433 1190T418 1083V452Q418 264 504 264Z" />
<glyph unicode="r" glyph-name="r" horiz-adv-x="710" d="M72 0V1500H436V1333Q462 1420 528 1469T694 1518V1219Q650 1219 589 1210T482 1184T436 1147V0H72Z" />
<glyph unicode="s" glyph-name="s" horiz-adv-x="972" d="M483 -16Q39 -16 39 434V553H399V377Q399 326 419 297T483 268Q561 268 561 385Q561 483 520 531T420 625L229 772Q139 842 92 920T45 1137Q45 1266 106 1350T269 1475T489 1516Q925 1516 925 1081V1053H555V1110Q555
1155 540 1197T479 1239Q403 1239 403 1159Q403 1078 467 1032L689 870Q793 795 863 692T934 418Q934 206 814 95T483 -16Z" />
<glyph unicode="t" glyph-name="t" horiz-adv-x="625" d="M380 -16Q235 -16 185 45T134 234V1169H33V1442H134V1760H482V1442H583V1169H482V318Q482 281 494 266T540 251Q564 251 583 255V11Q571 7 508 -4T380 -16Z" />
<glyph unicode="u" glyph-name="u" horiz-adv-x="1022" d="M361 -16Q241 -16 178 34T91 173T68 383V1500H428V425Q428 335 442 300T508 264Q564 264 578 314T593 443V1500H950V0H592V160Q558 74 511 29T361 -16Z" />
<glyph unicode="v" glyph-name="v" horiz-adv-x="944" d="M263 0L22 1500H381L467 498L564 1500H922L677 0H263Z" />
<glyph unicode="w" glyph-name="w" horiz-adv-x="1426" d="M229 0L48 1500H355L454 694L541 1500H884L987 694L1070 1500H1378L1195 0H818L710 851L616 0H229Z" />
<glyph unicode="x" glyph-name="x" horiz-adv-x="940" d="M8 0L283 806L33 1501H398L527 1137L654 1501H920L662 759L932 0H573L421 422L279 0H8Z" />
<glyph unicode="y" glyph-name="y" horiz-adv-x="944" d="M43 -250V-23H215Q254 -23 254 4Q254 18 251 33L16 1500H359L459 396L577 1500H922L644 -78Q629 -163 587 -206T447 -250H43Z" />
<glyph unicode="z" glyph-name="z" horiz-adv-x="790" d="M28 0V219L402 1216H46V1500H773V1256L420 268H776V0H28Z" />
<glyph unicode="{" glyph-name="braceleft" horiz-adv-x="696" d="M661 -188Q471 -184 364 -151T214 -38T170 180V515Q170 615 147 662T31 719V916Q123 927 146 973T170 1120V1455Q170 1595 213 1673T364 1785T661 1823V1556Q607 1552 565 1539T522 1472V1097Q522
1001 492 945T411 860T304 818Q361 805 411 777T491 692T522 538V163Q522 110 564 97T661 79V-188Z" />
<glyph unicode="|" glyph-name="bar" horiz-adv-x="443" d="M62 -84V1953H381V-84H62Z" />
<glyph unicode="}" glyph-name="braceright" horiz-adv-x="697" d="M40 -188V79Q94 83 136 96T179 163V538Q179 635 209 691T290 776T397 818Q340 831 290 859T210 944T179 1097V1472Q179 1525 137 1538T40 1556V1823Q230 1819 337 1786T487 1674T531 1455V1120Q531
1020 555 974T670 916V719Q579 709 555 662T531 515V180Q531 41 488 -38T337 -150T40 -188Z" />
<glyph unicode="~" glyph-name="asciitilde" horiz-adv-x="1009" d="M732 810Q662 810 604 824T483 862Q422 886 382 898T313 910Q284 910 259 894T212 835L50 921Q77 987 110 1042T192 1131T320 1164Q400 1164 453 1152T574 1113Q633 1091 664 1082T720 1073Q750
1073 775 1091T822 1155L1004 1095Q977 1022 946 957T865 851T732 810Z" />
<glyph unicode="&#xa0;" glyph-name="uni00A0" horiz-adv-x="480" />
<glyph unicode="&#xa1;" glyph-name="exclamdown" horiz-adv-x="464" d="M55 1353V1651H413V1353H55ZM55 -108L125 1173H343L413 -108H55Z" />
<glyph unicode="&#xa2;" glyph-name="cent" horiz-adv-x="986" d="M422 -163V-13Q217 10 133 138T48 492V954Q48 1124 80 1244T194 1432T422 1514V1677H595V1511Q743 1490 842 1395T941 1135V879H576V1116Q576 1168 561 1203T496 1239Q408 1239 408 1114V387Q408
341 428 303T494 264Q541 264 559 301T578 389V614H941V379Q941 211 843 110T595 -12V-163H422Z" />
<glyph unicode="&#xa3;" glyph-name="sterling" horiz-adv-x="970" d="M42 0V281Q102 317 141 351T199 435T218 568Q218 634 209 673H47V905H182L168 964Q161 994 152 1042T135 1141T127 1224Q127 1423 237 1515T544 1608Q689 1608 774 1549T896 1382T933 1125H614Q614
1235 600 1273T550 1312Q521 1312 508 1294T494 1226V1203Q494 1157 508 1087T550 905H834V673H585L596 541Q591 452 551 389T454 291H924V0H42Z" />
<glyph unicode="&#xa4;" glyph-name="currency" horiz-adv-x="1000" d="M194 509L45 659L136 750Q83 848 83 964Q83 1081 135 1178L45 1268L194 1418L281 1330Q378 1385 499 1385Q620 1385 717 1331L804 1418L954 1269L864 1179Q918 1082 918 964Q918 846 864
748L954 658L804 509L715 597Q623 545 499 545Q375 545 283 598L194 509ZM499 741Q594 741 651 807T708 966Q708 1061 652 1123T499 1186Q405 1186 348 1121T291 964Q291 871 347 806T499 741Z" />
<glyph unicode="&#xa5;" glyph-name="yen" horiz-adv-x="948" d="M91 271V445H291V543H91V717H253L10 1593H359L457 964L555 1593H903L661 717H815V543H623V445H815V271H623V0H291V271H91Z" />
<glyph unicode="&#xa6;" glyph-name="brokenbar" horiz-adv-x="455" d="M68 1043V1953H387V1043H68ZM68 -84V796H387V-84H68Z" />
<glyph unicode="&#xa7;" glyph-name="section" horiz-adv-x="920" d="M469 -19Q264 -19 152 72T40 367H375Q380 242 477 242Q515 242 534 263T554 314Q554 344 535 367T467 418T324 482Q179 541 120 626T60 795Q60 928 198 1031Q60 1132 60 1275Q60 1378 116 1452T264
1567T466 1607Q666 1607 770 1514T875 1221H570Q565 1346 472 1346Q428 1346 405 1326T381 1274Q381 1226 428 1193T594 1106Q758 1034 816 958T874 792Q874 661 736 557Q875 454 875 313Q875 210 819 136T671 21T469 -19ZM547 679Q576 707 587 732T599 780Q599
815 549 853T397 917Q347 858 347 813Q347 772 395 742T547 679Z" />
<glyph unicode="&#xa8;" glyph-name="dieresis" horiz-adv-x="976" d="M550 1599V1897H908V1599H550ZM66 1599V1897H424V1599H66Z" />
<glyph unicode="&#xa9;" glyph-name="copyright" horiz-adv-x="1382" d="M691 205Q551 205 432 254T223 393T84 602T34 862Q34 1002 83 1121T222 1330T431 1469T691 1519Q831 1519 950 1470T1159 1331T1298 1122T1348 862Q1348 722 1299 603T1160 394T951 255T691
205ZM691 334Q836 334 948 405T1124 597T1189 862Q1189 1008 1125 1127T948 1318T691 1390Q547 1390 435 1319T258 1128T193 862Q193 717 257 597T434 406T691 334ZM685 424Q581 424 518 483T455 648V1049Q455 1175 510 1240T689 1305Q790 1305 857 1256T924 1105V952H735V1053Q735
1130 689 1130Q661 1130 653 1113T645 1066V657Q645 635 656 614T689 592Q735 592 735 657V806H928V643Q928 424 685 424Z" />
<glyph unicode="&#xaa;" glyph-name="ordfeminine" horiz-adv-x="803" d="M286 779Q187 779 135 825T64 952T44 1134Q44 1230 60 1296T121 1409T247 1494T459 1571V1680Q459 1722 450 1749T398 1776Q339 1776 339 1711V1631H63Q62 1638 62 1647T62 1670Q62 1847
146 1922T416 1997Q559 1997 652 1920T745 1700V793H463V917Q450 868 399 824T286 779ZM398 1001Q433 1001 445 1030T458 1094V1407Q399 1384 367 1350T334 1245V1106Q334 1001 398 1001Z" />
<glyph unicode="&#xab;" glyph-name="guillemotleft" horiz-adv-x="1184" d="M548 260L38 545V959L548 1230V871L236 749L548 618V260ZM1126 260L616 545V959L1126 1230V871L814 749L1126 618V260Z" />
<glyph unicode="&#xac;" glyph-name="logicalnot" horiz-adv-x="827" d="M455 439V801H37V979H766V439H455Z" />
<glyph unicode="&#xad;" glyph-name="uni00AD" horiz-adv-x="600" d="M60 509V741H576V509H60Z" />
<glyph unicode="&#xae;" glyph-name="registered" horiz-adv-x="1382" d="M691 205Q551 205 432 254T223 393T84 602T34 862Q34 1002 83 1121T222 1330T431 1469T691 1519Q831 1519 950 1470T1159 1331T1298 1122T1348 862Q1348 722 1299 603T1160 394T951 255T691
205ZM691 334Q836 334 948 405T1124 597T1189 862Q1189 1008 1125 1127T948 1318T691 1390Q547 1390 435 1319T258 1128T193 862Q193 717 257 597T434 406T691 334ZM469 430V1282H758Q867 1282 898 1217T929 1043Q929 974 910 932T836 873Q915 858 915 751V430H731V762Q731
800 714 809T659 818V430H469ZM660 965H708Q745 965 745 1043Q745 1096 729 1110T660 1124V965Z" />
<glyph unicode="&#xaf;" glyph-name="overscore" horiz-adv-x="730" d="M40 1619V1772H690V1619H40Z" />
<glyph unicode="&#xb0;" glyph-name="degree" horiz-adv-x="796" d="M397 931Q237 931 141 1020T44 1269Q44 1427 140 1517T397 1607Q558 1607 654 1517T751 1269Q751 1111 655 1021T397 931ZM398 1112Q465 1112 502 1158T540 1269Q540 1334 503 1380T398 1426Q331
1426 294 1380T256 1269Q256 1204 293 1158T398 1112Z" />
<glyph unicode="&#xb1;" glyph-name="plusminus" horiz-adv-x="734" d="M254 414V622H46V854H254V1062H486V854H694V622H486V414H254ZM87 -1V231H603V-1H87Z" />
<glyph unicode="&#xb2;" glyph-name="uni00B2" horiz-adv-x="629" d="M60 792V847Q60 963 111 1045T225 1203Q287 1277 336 1359T386 1554Q386 1590 375 1616T330 1642Q278 1642 278 1551V1424H60V1488Q60 1655 115 1745T333 1836Q461 1836 532 1764T604 1559Q604
1468 579 1398T515 1272T433 1161Q400 1121 370 1078T315 987H597V792H60Z" />
<glyph unicode="&#xb3;" glyph-name="uni00B3" horiz-adv-x="632" d="M301 782Q164 782 102 854T39 1073V1181H251V1072Q251 1031 261 1003T309 974Q341 974 352 1001T364 1106V1131Q364 1185 346 1224T276 1264H256V1450Q309 1450 337 1473T366 1553Q366 1646
315 1646Q285 1646 273 1625T260 1554V1519H45V1556Q45 1702 111 1769T314 1836Q579 1836 579 1556Q579 1480 559 1430T482 1360Q548 1328 564 1269T581 1106Q581 950 516 866T301 782Z" />
<glyph unicode="&#xb4;" glyph-name="acute" horiz-adv-x="650" d="M91 1553V1776L566 1994V1647L91 1553Z" />
<glyph unicode="&#xb5;" glyph-name="uni00B5" horiz-adv-x="1003" d="M68 -186V1500H428V425Q428 335 442 300T508 264Q564 264 578 314T593 443V1500H950V0H592V160Q563 89 527 46T417 -11V-186H68Z" />
<glyph unicode="&#xb6;" glyph-name="paragraph" horiz-adv-x="1019" d="M378 0V797Q199 817 115 915T31 1210Q31 1363 104 1446T303 1561T582 1593H957V0H718V1287H624V0H378Z" />
<glyph unicode="&#xb7;" glyph-name="middot" horiz-adv-x="480" d="M81 723V1021H399V723H81Z" />
<glyph unicode="&#xb8;" glyph-name="cedilla" horiz-adv-x="576" d="M238 -631Q135 -631 40 -591V-368Q71 -378 101 -384T158 -391Q208 -391 241 -365T275 -273Q275 -217 248 -145T171 0H332Q429 -85 482 -189T536 -387Q536 -490 465 -560T238 -631Z" />
<glyph unicode="&#xb9;" glyph-name="uni00B9" horiz-adv-x="434" d="M152 796V1592Q131 1567 94 1551T24 1535V1700Q71 1707 125 1739T205 1830H372V796H152Z" />
<glyph unicode="&#xba;" glyph-name="ordmasculine" horiz-adv-x="813" d="M406 779Q50 779 50 1149V1627Q50 1793 144 1895T405 1997Q573 1997 667 1897T762 1627V1149Q762 968 674 874T406 779ZM406 1000Q472 1000 472 1091V1672Q472 1776 406 1776Q339 1776
339 1672V1091Q339 1000 406 1000Z" />
<glyph unicode="&#xbb;" glyph-name="guillemotright" horiz-adv-x="1184" d="M58 260V618L370 749L58 871V1230L568 959V545L58 260ZM635 260V618L947 749L635 871V1230L1145 959V545L635 260Z" />
<glyph unicode="&#xbc;" glyph-name="onequarter" horiz-adv-x="1667" d="M273 726V1522Q252 1497 215 1481T145 1465V1630Q192 1637 246 1669T326 1760H493V726H273ZM419 -16L998 1776H1282L602 -16H419ZM1263 0V169H956V331L1152 1034H1474V342H1530V169H1474V0H1263ZM1141
342H1263V857L1141 342Z" />
<glyph unicode="&#xbd;" glyph-name="onehalf" horiz-adv-x="1487" d="M152 727V1523Q131 1498 94 1482T24 1466V1631Q71 1638 125 1670T205 1761H372V727H152ZM273 -6L852 1786H1136L456 -6H273ZM918 0V55Q918 171 969 253T1083 411Q1145 485 1194 567T1244 762Q1244
798 1233 824T1188 850Q1136 850 1136 759V632H918V696Q918 863 973 953T1191 1044Q1319 1044 1390 972T1462 767Q1462 676 1437 606T1373 480T1291 369Q1258 329 1228 286T1173 195H1455V0H918Z" />
<glyph unicode="&#xbe;" glyph-name="threequarters" horiz-adv-x="1750" d="M409 712Q272 712 210 784T147 1003V1111H359V1002Q359 961 369 933T417 904Q449 904 460 931T472 1036V1061Q472 1115 454 1154T384 1194H364V1380Q417 1380 445 1403T474 1483Q474
1576 423 1576Q393 1576 381 1555T368 1484V1449H153V1486Q153 1632 219 1699T422 1766Q687 1766 687 1486Q687 1410 667 1360T590 1290Q656 1258 672 1199T689 1036Q689 880 624 796T409 712ZM517 -16L1096 1776H1380L700 -16H517ZM1346 0V169H1039V331L1235 1034H1557V342H1613V169H1557V0H1346ZM1224
342H1346V857L1224 342Z" />
<glyph unicode="&#xbf;" glyph-name="questiondown" horiz-adv-x="1009" d="M900 1646V1348H542V1646H900ZM889 1192V776Q764 776 675 763T528 708T443 581T415 353Q415 288 431 239T508 190Q552 190 571 217T596 287T602 376V522H968V268Q968 66 840 -31T508
-129Q331 -129 228 -65T82 121T38 421Q38 594 94 730T266 944T556 1022V1192H889Z" />
<glyph unicode="&#xc0;" glyph-name="Agrave" horiz-adv-x="994" d="M30 0L200 1760H797L964 0H631L606 284H394L372 0H30ZM419 565H579L502 1460H486L419 565ZM733 1813L258 1907V2254L733 2036V1813Z" />
<glyph unicode="&#xc1;" glyph-name="Aacute" horiz-adv-x="994" d="M30 0L200 1760H797L964 0H631L606 284H394L372 0H30ZM419 565H579L502 1460H486L419 565ZM258 1813V2036L733 2254V1907L258 1813Z" />
<glyph unicode="&#xc2;" glyph-name="Acircumflex" horiz-adv-x="994" d="M30 0L200 1760H797L964 0H631L606 284H394L372 0H30ZM419 565H579L502 1460H486L419 565ZM51 1851L292 2254H700L941 1851H582L496 2136L410 1851H51Z" />
<glyph unicode="&#xc3;" glyph-name="Atilde" horiz-adv-x="994" d="M30 0L200 1760H797L964 0H631L606 284H394L372 0H30ZM419 565H579L502 1460H486L419 565ZM661 1871Q587 1871 526 1894T414 1939T323 1962Q297 1962 274 1947T231 1894L83 1972Q108 2033 137
2083T213 2164T330 2195Q401 2195 458 2174T563 2132T650 2111Q677 2111 700 2128T743 2186L909 2132Q885 2065 856 2005T782 1908T661 1871Z" />
<glyph unicode="&#xc4;" glyph-name="Adieresis" horiz-adv-x="994" d="M30 0L200 1760H797L964 0H631L606 284H394L372 0H30ZM419 565H579L502 1460H486L419 565ZM552 1859V2157H910V1859H552ZM68 1859V2157H426V1859H68Z" />
<glyph unicode="&#xc5;" glyph-name="Aring" horiz-adv-x="994" d="M30 0L200 1760H797L964 0H631L606 284H394L372 0H30ZM419 565H579L502 1460H486L419 565ZM495 1840Q335 1840 239 1929T142 2178Q142 2336 238 2426T495 2516Q656 2516 752 2426T849 2178Q849
2020 753 1930T495 1840ZM496 2021Q563 2021 600 2067T638 2178Q638 2243 601 2289T496 2335Q429 2335 392 2289T354 2178Q354 2113 391 2067T496 2021Z" />
<glyph unicode="&#xc6;" glyph-name="AE" horiz-adv-x="1311" d="M-44 0L277 1760H1249V1451H963V1049H1235V750H963V311H1272V0H623V479H416L337 0H-44ZM462 769H618V1461H561L462 769Z" />
<glyph unicode="&#xc7;" glyph-name="Ccedilla" horiz-adv-x="971" d="M488 -16Q297 -16 181 103T64 436V1248Q64 1504 165 1640T496 1776Q621 1776 718 1730T872 1593T928 1362V1058H578V1318Q578 1397 558 1424T496 1452Q447 1452 430 1417T413 1322V441Q413
368 434 338T496 308Q541 308 559 345T578 441V758H932V425Q932 193 815 89T488 -16ZM463 -631Q360 -631 265 -591V-368Q296 -378 326 -384T383 -391Q433 -391 466 -365T500 -273Q500 -217 473 -145T396 0H557Q654 -85 707 -189T761 -387Q761 -490 690 -560T463
-631Z" />
<glyph unicode="&#xc8;" glyph-name="Egrave" horiz-adv-x="843" d="M78 0V1760H782V1420H436V1077H768V746H436V343H805V0H78ZM681 1813L206 1907V2254L681 2036V1813Z" />
<glyph unicode="&#xc9;" glyph-name="Eacute" horiz-adv-x="843" d="M78 0V1760H782V1420H436V1077H768V746H436V343H805V0H78ZM206 1813V2036L681 2254V1907L206 1813Z" />
<glyph unicode="&#xca;" glyph-name="Ecircumflex" horiz-adv-x="843" d="M78 0V1760H782V1420H436V1077H768V746H436V343H805V0H78ZM-1 1851L240 2254H648L889 1851H530L444 2136L358 1851H-1Z" />
<glyph unicode="&#xcb;" glyph-name="Edieresis" horiz-adv-x="843" d="M78 0V1760H782V1420H436V1077H768V746H436V343H805V0H78ZM500 1859V2157H858V1859H500ZM16 1859V2157H374V1859H16Z" />
<glyph unicode="&#xcc;" glyph-name="Igrave" horiz-adv-x="464" d="M62 0V1760H402V0H62ZM469 1813L-6 1907V2254L469 2036V1813Z" />
<glyph unicode="&#xcd;" glyph-name="Iacute" horiz-adv-x="464" d="M62 0V1760H402V0H62ZM-6 1813V2036L469 2254V1907L-6 1813Z" />
<glyph unicode="&#xce;" glyph-name="Icircumflex" horiz-adv-x="464" d="M62 0V1760H402V0H62ZM-213 1851L28 2254H436L677 1851H318L232 2136L146 1851H-213Z" />
<glyph unicode="&#xcf;" glyph-name="Idieresis" horiz-adv-x="464" d="M62 0V1760H402V0H62ZM288 1859V2157H646V1859H288ZM-196 1859V2157H162V1859H-196Z" />
<glyph unicode="&#xd0;" glyph-name="Eth" horiz-adv-x="1010" d="M78 0V804H3V1036H78V1760H562Q752 1760 848 1655T944 1346V522Q944 272 857 136T550 0H78ZM432 311H493Q590 311 590 405V1313Q590 1401 567 1426T471 1452H432V1036H519V804H432V311Z" />
<glyph unicode="&#xd1;" glyph-name="Ntilde" horiz-adv-x="1020" d="M78 0V1760H440L602 917V1760H942V0H598L422 880V0H78ZM696 1871Q622 1871 561 1894T449 1939T358 1962Q332 1962 309 1947T266 1894L118 1972Q143 2033 172 2083T248 2164T365 2195Q436 2195
493 2174T598 2132T685 2111Q712 2111 735 2128T778 2186L944 2132Q920 2065 891 2005T817 1908T696 1871Z" />
<glyph unicode="&#xd2;" glyph-name="Ograve" horiz-adv-x="996" d="M498 -16Q287 -16 176 111T64 480V1316Q64 1542 174 1659T498 1776Q711 1776 821 1659T932 1316V480Q932 239 821 112T498 -16ZM501 308Q581 308 581 463V1322Q581 1452 503 1452Q415 1452 415
1319V461Q415 379 435 344T501 308ZM736 1813L261 1907V2254L736 2036V1813Z" />
<glyph unicode="&#xd3;" glyph-name="Oacute" horiz-adv-x="996" d="M498 -16Q287 -16 176 111T64 480V1316Q64 1542 174 1659T498 1776Q711 1776 821 1659T932 1316V480Q932 239 821 112T498 -16ZM501 308Q581 308 581 463V1322Q581 1452 503 1452Q415 1452 415
1319V461Q415 379 435 344T501 308ZM261 1813V2036L736 2254V1907L261 1813Z" />
<glyph unicode="&#xd4;" glyph-name="Ocircumflex" horiz-adv-x="996" d="M498 -16Q287 -16 176 111T64 480V1316Q64 1542 174 1659T498 1776Q711 1776 821 1659T932 1316V480Q932 239 821 112T498 -16ZM501 308Q581 308 581 463V1322Q581 1452 503 1452Q415 1452
415 1319V461Q415 379 435 344T501 308ZM54 1851L295 2254H703L944 1851H585L499 2136L413 1851H54Z" />
<glyph unicode="&#xd5;" glyph-name="Otilde" horiz-adv-x="996" d="M498 -16Q287 -16 176 111T64 480V1316Q64 1542 174 1659T498 1776Q711 1776 821 1659T932 1316V480Q932 239 821 112T498 -16ZM501 308Q581 308 581 463V1322Q581 1452 503 1452Q415 1452 415
1319V461Q415 379 435 344T501 308ZM664 1871Q590 1871 529 1894T417 1939T326 1962Q300 1962 277 1947T234 1894L86 1972Q111 2033 140 2083T216 2164T333 2195Q404 2195 461 2174T566 2132T653 2111Q680 2111 703 2128T746 2186L912 2132Q888 2065 859 2005T785
1908T664 1871Z" />
<glyph unicode="&#xd6;" glyph-name="Odieresis" horiz-adv-x="996" d="M498 -16Q287 -16 176 111T64 480V1316Q64 1542 174 1659T498 1776Q711 1776 821 1659T932 1316V480Q932 239 821 112T498 -16ZM501 308Q581 308 581 463V1322Q581 1452 503 1452Q415 1452
415 1319V461Q415 379 435 344T501 308ZM555 1859V2157H913V1859H555ZM71 1859V2157H429V1859H71Z" />
<glyph unicode="&#xd7;" glyph-name="multiply" horiz-adv-x="710" d="M208 314L44 478L191 625L44 772L208 936L355 789L502 936L666 772L519 625L666 478L502 314L355 461L208 314Z" />
<glyph unicode="&#xd8;" glyph-name="Oslash" horiz-adv-x="996" d="M111 -186L185 101Q64 229 64 480V1316Q64 1543 175 1659T498 1776Q585 1776 656 1756L719 2000H859L781 1695Q932 1581 932 1316V480Q932 245 823 115T498 -16Q388 -16 304 19L251 -186H111ZM501
308Q551 308 566 353T581 463V1322Q581 1369 568 1410T503 1452Q452 1452 434 1414T415 1319V461Q415 392 431 350T501 308Z" />
<glyph unicode="&#xd9;" glyph-name="Ugrave" horiz-adv-x="970" d="M485 -16Q265 -16 161 107T57 471V1760H399V485Q399 441 404 401T427 334T485 308Q526 308 544 333T566 400T571 485V1760H913V471Q913 231 809 108T485 -16ZM722 1813L247 1907V2254L722 2036V1813Z" />
<glyph unicode="&#xda;" glyph-name="Uacute" horiz-adv-x="970" d="M485 -16Q265 -16 161 107T57 471V1760H399V485Q399 441 404 401T427 334T485 308Q526 308 544 333T566 400T571 485V1760H913V471Q913 231 809 108T485 -16ZM247 1813V2036L722 2254V1907L247 1813Z" />
<glyph unicode="&#xdb;" glyph-name="Ucircumflex" horiz-adv-x="970" d="M485 -16Q265 -16 161 107T57 471V1760H399V485Q399 441 404 401T427 334T485 308Q526 308 544 333T566 400T571 485V1760H913V471Q913 231 809 108T485 -16ZM40 1851L281 2254H689L930
1851H571L485 2136L399 1851H40Z" />
<glyph unicode="&#xdc;" glyph-name="Udieresis" horiz-adv-x="970" d="M485 -16Q265 -16 161 107T57 471V1760H399V485Q399 441 404 401T427 334T485 308Q526 308 544 333T566 400T571 485V1760H913V471Q913 231 809 108T485 -16ZM541 1859V2157H899V1859H541ZM57
1859V2157H415V1859H57Z" />
<glyph unicode="&#xdd;" glyph-name="Yacute" horiz-adv-x="914" d="M291 0V579L10 1760H359L457 1164L555 1760H903L623 579V0H291ZM218 1813V2036L693 2254V1907L218 1813Z" />
<glyph unicode="&#xde;" glyph-name="Thorn" horiz-adv-x="947" d="M62 0V1760H407V1516H527Q681 1516 766 1447T884 1255T918 973Q918 820 890 698T783 505T551 434H408V0H62ZM408 721H428Q510 721 540 770T570 967Q570 1044 563 1102T531 1193T447 1226H408V721Z" />
<glyph unicode="&#xdf;" glyph-name="germandbls" horiz-adv-x="1007" d="M58 0V1412Q58 1776 483 1776Q677 1776 793 1692T909 1412V1295Q909 1190 875 1118T759 1020Q886 990 927 872T969 559Q969 410 935 283T817 78T582 0H478V281Q621 281 621 399V731Q621
812 589 845T474 878V1126Q527 1126 542 1160T558 1245V1453Q558 1529 483 1529Q408 1529 408 1453V0H58Z" />
<glyph unicode="&#xe0;" glyph-name="agrave" horiz-adv-x="990" d="M345 -16Q220 -16 155 42T65 201T41 430Q41 567 68 654T160 798T341 893L563 969V1123Q563 1244 484 1244Q412 1244 412 1146V1056H64Q63 1064 63 1076T63 1105Q63 1329 168 1422T503 1516Q623
1516 718 1474T868 1348T924 1143V0H568V178Q542 84 482 34T345 -16ZM486 262Q530 262 546 299T562 379V797Q488 767 447 722T406 588V395Q406 262 486 262ZM740 1569L265 1663V2010L740 1792V1569Z" />
<glyph unicode="&#xe1;" glyph-name="aacute" horiz-adv-x="990" d="M345 -16Q220 -16 155 42T65 201T41 430Q41 567 68 654T160 798T341 893L563 969V1123Q563 1244 484 1244Q412 1244 412 1146V1056H64Q63 1064 63 1076T63 1105Q63 1329 168 1422T503 1516Q623
1516 718 1474T868 1348T924 1143V0H568V178Q542 84 482 34T345 -16ZM486 262Q530 262 546 299T562 379V797Q488 767 447 722T406 588V395Q406 262 486 262ZM265 1569V1792L740 2010V1663L265 1569Z" />
<glyph unicode="&#xe2;" glyph-name="acircumflex" horiz-adv-x="990" d="M345 -16Q220 -16 155 42T65 201T41 430Q41 567 68 654T160 798T341 893L563 969V1123Q563 1244 484 1244Q412 1244 412 1146V1056H64Q63 1064 63 1076T63 1105Q63 1329 168 1422T503 1516Q623
1516 718 1474T868 1348T924 1143V0H568V178Q542 84 482 34T345 -16ZM486 262Q530 262 546 299T562 379V797Q488 767 447 722T406 588V395Q406 262 486 262ZM58 1607L299 2010H707L948 1607H589L503 1892L417 1607H58Z" />
<glyph unicode="&#xe3;" glyph-name="atilde" horiz-adv-x="990" d="M345 -16Q220 -16 155 42T65 201T41 430Q41 567 68 654T160 798T341 893L563 969V1123Q563 1244 484 1244Q412 1244 412 1146V1056H64Q63 1064 63 1076T63 1105Q63 1329 168 1422T503 1516Q623
1516 718 1474T868 1348T924 1143V0H568V178Q542 84 482 34T345 -16ZM486 262Q530 262 546 299T562 379V797Q488 767 447 722T406 588V395Q406 262 486 262ZM668 1627Q591 1627 532 1650T425 1695T330 1718Q304 1718 281 1703T238 1650L90 1728Q115 1789 144 1839T220
1920T337 1951Q411 1951 468 1930T571 1888T657 1867Q684 1867 707 1884T750 1942L916 1888Q892 1821 863 1761T789 1664T668 1627Z" />
<glyph unicode="&#xe4;" glyph-name="adieresis" horiz-adv-x="990" d="M345 -16Q220 -16 155 42T65 201T41 430Q41 567 68 654T160 798T341 893L563 969V1123Q563 1244 484 1244Q412 1244 412 1146V1056H64Q63 1064 63 1076T63 1105Q63 1329 168 1422T503 1516Q623
1516 718 1474T868 1348T924 1143V0H568V178Q542 84 482 34T345 -16ZM486 262Q530 262 546 299T562 379V797Q488 767 447 722T406 588V395Q406 262 486 262ZM559 1615V1913H917V1615H559ZM75 1615V1913H433V1615H75Z" />
<glyph unicode="&#xe5;" glyph-name="aring" horiz-adv-x="990" d="M345 -16Q220 -16 155 42T65 201T41 430Q41 567 68 654T160 798T341 893L563 969V1123Q563 1244 484 1244Q412 1244 412 1146V1056H64Q63 1064 63 1076T63 1105Q63 1329 168 1422T503 1516Q623
1516 718 1474T868 1348T924 1143V0H568V178Q542 84 482 34T345 -16ZM486 262Q530 262 546 299T562 379V797Q488 767 447 722T406 588V395Q406 262 486 262ZM502 1596Q342 1596 246 1685T149 1934Q149 2092 245 2182T502 2272Q663 2272 759 2182T856 1934Q856 1776
760 1686T502 1596ZM503 1777Q570 1777 607 1823T645 1934Q645 1999 608 2045T503 2091Q436 2091 399 2045T361 1934Q361 1869 398 1823T503 1777Z" />
<glyph unicode="&#xe6;" glyph-name="ae" horiz-adv-x="1497" d="M449 -18Q249 -18 144 102T38 430Q38 595 77 687T192 830T380 919L560 980V1083Q560 1165 542 1202T483 1239Q409 1239 409 1157V1056H61Q60 1064 60 1076T60 1105Q60 1329 158 1423T441 1518Q568
1518 637 1488T747 1396Q787 1457 857 1487T1044 1518Q1238 1518 1342 1412T1446 1092V983Q1446 882 1445 812T1442 704H921V494Q921 370 942 315T1012 260Q1056 260 1073 301T1090 453V579H1446V494Q1446 333 1411 219T1286 43T1036 -18Q931 -18 855 29T748 148Q714
75 638 29T449 -18ZM921 931H1090V1087Q1090 1249 1010 1249Q943 1249 932 1194T921 1052V931ZM483 262Q527 262 543 299T559 379V774Q485 744 444 701T403 570V395Q403 262 483 262Z" />
<glyph unicode="&#xe7;" glyph-name="ccedilla" horiz-adv-x="1006" d="M523 -16Q271 -16 166 113T60 492V954Q60 1142 100 1267T240 1454T518 1516Q642 1516 740 1472T896 1343T953 1135V906H588V1116Q588 1168 573 1203T508 1239Q420 1239 420 1114V387Q420
341 440 303T506 264Q553 264 571 301T590 389V641H953V379Q953 255 898 167T745 31T523 -16ZM488 -631Q385 -631 290 -591V-368Q321 -378 351 -384T408 -391Q458 -391 491 -365T525 -273Q525 -217 498 -145T421 0H582Q679 -85 732 -189T786 -387Q786 -490 715
-560T488 -631Z" />
<glyph unicode="&#xe8;" glyph-name="egrave" horiz-adv-x="1000" d="M492 -16Q332 -16 237 44T101 217T60 489V1092Q60 1301 180 1408T510 1516Q942 1516 942 1092V983Q942 785 938 717H418V427Q418 387 423 349T445 285T502 260Q558 260 572 308T586 435V579H942V494Q942
326 901 213T761 42T492 -16ZM416 895H586V1097Q586 1178 566 1213T506 1249Q463 1249 440 1215T416 1097V895ZM747 1553L272 1647V1994L747 1776V1553Z" />
<glyph unicode="&#xe9;" glyph-name="eacute" horiz-adv-x="1000" d="M492 -16Q332 -16 237 44T101 217T60 489V1092Q60 1301 180 1408T510 1516Q942 1516 942 1092V983Q942 785 938 717H418V427Q418 387 423 349T445 285T502 260Q558 260 572 308T586 435V579H942V494Q942
326 901 213T761 42T492 -16ZM416 895H586V1097Q586 1178 566 1213T506 1249Q463 1249 440 1215T416 1097V895ZM273 1553V1776L748 1994V1647L273 1553Z" />
<glyph unicode="&#xea;" glyph-name="ecircumflex" horiz-adv-x="1000" d="M492 -16Q332 -16 237 44T101 217T60 489V1092Q60 1301 180 1408T510 1516Q942 1516 942 1092V983Q942 785 938 717H418V427Q418 387 423 349T445 285T502 260Q558 260 572 308T586 435V579H942V494Q942
326 901 213T761 42T492 -16ZM416 895H586V1097Q586 1178 566 1213T506 1249Q463 1249 440 1215T416 1097V895ZM65 1591L306 1994H714L955 1591H596L510 1876L424 1591H65Z" />
<glyph unicode="&#xeb;" glyph-name="edieresis" horiz-adv-x="1000" d="M492 -16Q332 -16 237 44T101 217T60 489V1092Q60 1301 180 1408T510 1516Q942 1516 942 1092V983Q942 785 938 717H418V427Q418 387 423 349T445 285T502 260Q558 260 572 308T586 435V579H942V494Q942
326 901 213T761 42T492 -16ZM416 895H586V1097Q586 1178 566 1213T506 1249Q463 1249 440 1215T416 1097V895ZM566 1599V1897H924V1599H566ZM82 1599V1897H440V1599H82Z" />
<glyph unicode="&#xec;" glyph-name="igrave" horiz-adv-x="482" d="M62 0V1500H420V0H62ZM478 1553L3 1647V1994L478 1776V1553Z" />
<glyph unicode="&#xed;" glyph-name="iacute" horiz-adv-x="482" d="M62 0V1500H420V0H62ZM4 1553V1776L479 1994V1647L4 1553Z" />
<glyph unicode="&#xee;" glyph-name="icircumflex" horiz-adv-x="482" d="M62 0V1500H420V0H62ZM-204 1591L37 1994H445L686 1591H327L241 1876L155 1591H-204Z" />
<glyph unicode="&#xef;" glyph-name="idieresis" horiz-adv-x="482" d="M62 0V1500H420V0H62ZM297 1599V1897H655V1599H297ZM-187 1599V1897H171V1599H-187Z" />
<glyph unicode="&#xf0;" glyph-name="eth" horiz-adv-x="1031" d="M508 -16Q336 -16 236 55T92 262T49 589Q49 849 147 975T464 1102Q533 1102 601 1077Q565 1167 501 1259L324 1144L241 1273L394 1372Q229 1515 84 1546L178 1774Q427 1751 659 1545L830 1656L913
1527L768 1432Q875 1285 932 1135T990 799V538Q990 350 946 227T797 44T508 -16ZM528 279Q623 279 623 420V701Q623 836 522 836Q435 836 435 680V482Q435 394 448 337T528 279Z" />
<glyph unicode="&#xf1;" glyph-name="ntilde" horiz-adv-x="1021" d="M72 0V1500H430V1309Q450 1395 504 1455T656 1516Q812 1516 882 1420T953 1157V0H600V1120Q600 1164 582 1201T520 1239Q479 1239 460 1211T435 1140T430 1055V0H72ZM678 1611Q601 1611 542
1634T435 1679T340 1702Q314 1702 291 1687T248 1634L100 1712Q125 1773 154 1823T230 1904T347 1935Q421 1935 478 1914T581 1872T667 1851Q694 1851 717 1868T760 1926L926 1872Q902 1805 873 1745T799 1648T678 1611Z" />
<glyph unicode="&#xf2;" glyph-name="ograve" horiz-adv-x="1017" d="M508 -16Q60 -16 60 449V1051Q60 1263 179 1389T508 1516Q719 1516 838 1390T957 1051V449Q957 -16 508 -16ZM508 260Q553 260 572 292T592 375V1108Q592 1239 508 1239Q424 1239 424 1108V375Q424
325 443 293T508 260ZM745 1569L270 1663V2010L745 1792V1569Z" />
<glyph unicode="&#xf3;" glyph-name="oacute" horiz-adv-x="1017" d="M508 -16Q60 -16 60 449V1051Q60 1263 179 1389T508 1516Q719 1516 838 1390T957 1051V449Q957 -16 508 -16ZM508 260Q553 260 572 292T592 375V1108Q592 1239 508 1239Q424 1239 424 1108V375Q424
325 443 293T508 260ZM271 1569V1792L746 2010V1663L271 1569Z" />
<glyph unicode="&#xf4;" glyph-name="ocircumflex" horiz-adv-x="1017" d="M508 -16Q60 -16 60 449V1051Q60 1263 179 1389T508 1516Q719 1516 838 1390T957 1051V449Q957 -16 508 -16ZM508 260Q553 260 572 292T592 375V1108Q592 1239 508 1239Q424 1239 424
1108V375Q424 325 443 293T508 260ZM63 1607L304 2010H712L953 1607H594L508 1892L422 1607H63Z" />
<glyph unicode="&#xf5;" glyph-name="otilde" horiz-adv-x="1017" d="M508 -16Q60 -16 60 449V1051Q60 1263 179 1389T508 1516Q719 1516 838 1390T957 1051V449Q957 -16 508 -16ZM508 260Q553 260 572 292T592 375V1108Q592 1239 508 1239Q424 1239 424 1108V375Q424
325 443 293T508 260ZM673 1627Q596 1627 537 1650T430 1695T335 1718Q309 1718 286 1703T243 1650L95 1728Q120 1789 149 1839T225 1920T342 1951Q416 1951 473 1930T576 1888T662 1867Q689 1867 712 1884T755 1942L921 1888Q897 1821 868 1761T794 1664T673 1627Z"
/>
<glyph unicode="&#xf6;" glyph-name="odieresis" horiz-adv-x="1017" d="M508 -16Q60 -16 60 449V1051Q60 1263 179 1389T508 1516Q719 1516 838 1390T957 1051V449Q957 -16 508 -16ZM508 260Q553 260 572 292T592 375V1108Q592 1239 508 1239Q424 1239 424 1108V375Q424
325 443 293T508 260ZM564 1615V1913H922V1615H564ZM80 1615V1913H438V1615H80Z" />
<glyph unicode="&#xf7;" glyph-name="divide" horiz-adv-x="684" d="M193 976V1274H491V976H193ZM34 638V870H650V638H34ZM193 237V535H491V237H193Z" />
<glyph unicode="&#xf8;" glyph-name="oslash" horiz-adv-x="1017" d="M181 -186L241 45Q60 153 60 449V1051Q60 1263 179 1389T508 1516Q568 1516 621 1505L671 1702H811L750 1458Q849 1402 903 1297T957 1051V449Q957 -16 508 -16Q432 -16 368 -3L321 -186H181ZM508
260Q553 260 572 292T592 375V1108Q592 1239 508 1239Q424 1239 424 1108V375Q424 325 443 293T508 260Z" />
<glyph unicode="&#xf9;" glyph-name="ugrave" horiz-adv-x="1022" d="M361 -16Q241 -16 178 34T91 173T68 383V1500H428V425Q428 335 442 300T508 264Q564 264 578 314T593 443V1500H950V0H592V160Q558 74 511 29T361 -16ZM749 1553L274 1647V1994L749 1776V1553Z" />
<glyph unicode="&#xfa;" glyph-name="uacute" horiz-adv-x="1022" d="M361 -16Q241 -16 178 34T91 173T68 383V1500H428V425Q428 335 442 300T508 264Q564 264 578 314T593 443V1500H950V0H592V160Q558 74 511 29T361 -16ZM275 1553V1776L750 1994V1647L275 1553Z" />
<glyph unicode="&#xfb;" glyph-name="ucircumflex" horiz-adv-x="1022" d="M361 -16Q241 -16 178 34T91 173T68 383V1500H428V425Q428 335 442 300T508 264Q564 264 578 314T593 443V1500H950V0H592V160Q558 74 511 29T361 -16ZM67 1591L308 1994H716L957 1591H598L512
1876L426 1591H67Z" />
<glyph unicode="&#xfc;" glyph-name="udieresis" horiz-adv-x="1022" d="M361 -16Q241 -16 178 34T91 173T68 383V1500H428V425Q428 335 442 300T508 264Q564 264 578 314T593 443V1500H950V0H592V160Q558 74 511 29T361 -16ZM568 1599V1897H926V1599H568ZM84
1599V1897H442V1599H84Z" />
<glyph unicode="&#xfd;" glyph-name="yacute" horiz-adv-x="944" d="M43 -250V-23H215Q254 -23 254 4Q254 18 251 33L16 1500H359L459 396L577 1500H922L644 -78Q629 -163 587 -206T447 -250H43ZM234 1553V1776L709 1994V1647L234 1553Z" />
<glyph unicode="&#xfe;" glyph-name="thorn" horiz-adv-x="1007" d="M62 -250V1769H430V1427Q520 1519 630 1519Q813 1519 885 1409T957 1114V391Q957 276 925 183T823 36T641 -18Q496 -18 430 160V-250H62ZM514 263Q570 263 582 319T594 457V1081Q594 1149 583
1194T518 1239Q464 1239 447 1196T430 1085V457Q430 376 443 320T514 263Z" />
<glyph unicode="&#xff;" glyph-name="ydieresis" horiz-adv-x="944" d="M43 -250V-23H215Q254 -23 254 4Q254 18 251 33L16 1500H359L459 396L577 1500H922L644 -78Q629 -163 587 -206T447 -250H43ZM527 1599V1897H885V1599H527ZM43 1599V1897H401V1599H43Z" />
<glyph unicode="&#x2013;" glyph-name="endash" horiz-adv-x="637" d="M60 509V741H576V509H60Z" />
<glyph unicode="&#x2014;" glyph-name="emdash" horiz-adv-x="1153" d="M60 509V741H1092V509H60Z" />
<glyph unicode="&#x2018;" glyph-name="quoteleft" horiz-adv-x="481" d="M54 1226V1515L156 1760H367L301 1524H428V1226H54Z" />
<glyph unicode="&#x2019;" glyph-name="quoteright" horiz-adv-x="475" d="M111 1244L177 1480H50V1778H424V1489L322 1244H111Z" />
<glyph unicode="&#x201a;" glyph-name="quotesinglbase" horiz-adv-x="484" d="M116 -236L182 0H55V298H429V9L327 -236H116Z" />
<glyph unicode="&#x201c;" glyph-name="quotedblleft" horiz-adv-x="950" d="M54 1226V1515L156 1760H367L301 1524H428V1226H54ZM523 1226V1515L625 1760H836L770 1524H897V1226H523Z" />
<glyph unicode="&#x201d;" glyph-name="quotedblright" horiz-adv-x="948" d="M111 1226L177 1462H50V1760H424V1471L322 1226H111ZM584 1226L650 1462H523V1760H897V1471L795 1226H584Z" />
<glyph unicode="&#x201e;" glyph-name="quotedblbase" horiz-adv-x="957" d="M116 -236L182 0H55V298H429V9L327 -236H116ZM589 -236L655 0H528V298H902V9L800 -236H589Z" />
<glyph unicode="&#x2022;" glyph-name="bullet" horiz-adv-x="721" d="M360 403Q211 403 129 496T47 741Q47 893 129 986T360 1079Q509 1079 591 986T674 741Q674 590 592 497T360 403Z" />
<glyph unicode="&#x2039;" glyph-name="guilsinglleft" horiz-adv-x="606" d="M548 260L38 545V959L548 1230V871L236 749L548 618V260Z" />
<glyph unicode="&#x203a;" glyph-name="guilsinglright" horiz-adv-x="607" d="M58 260V618L370 749L58 871V1230L568 959V545L58 260Z" />
</font>
</defs>
</svg>
